๑۩۞۩๑ [ AsK ] ๑۩۞۩๑ Index du Forum
๑۩۞۩๑ [ AsK ] ๑۩۞۩๑

 
 ๑۩۞۩๑ [ AsK ] ๑۩۞۩๑ Index du ForumFAQRechercherS’enregistrerConnexion



 ~ Bienvenue Gamers ~ 
                                                                                                     


 
 
 
            
  
               
 
 
 
 
 
 
 
 
 
 
 
 
  
     Inscrivez-vous pour accéder à nos rubrique !!
             -------------------------------------------------------------------------------------------------------------------------
 
 
  
   
    
Tournoi Saison 1 annulé désoler mais plus admin pour gérer







      ------------------------------------------------------------------------------------------------------------------------- 
 
 
 
Get your own Chat Box! Go Large!

 
  
 
 
 
 
            
  
               
 
 
 
 
 
 
 
 
 
 
 
 
  
   
    
:: [HD] The$%Following>Season.1 720p Hdtv ::

 
Poster un nouveau sujet   Répondre au sujet     ๑۩۞۩๑ [ AsK ] ๑۩۞۩๑ Index du Forum -> [ Espace Tournoi s1 ] -> Inscription
Sujet précédent :: Sujet suivant  
Auteur Message
hilmyamar
[ Visiteurs ]

Hors ligne

Inscrit le: 02 Avr 2016
Messages: 271
Localisation: Lyon
Masculin

MessagePosté le: Jeu 2 Juin - 03:04 (2016)    Sujet du message: [HD] The$%Following>Season.1 720p Hdtv Répondre en citant




The Following Season 1 720p Hdtv > bit.ly/1t2Ck1d










10cf746e54
PakistanPalestinePanamaPapua New GuineaParaguayPeruPhilippinesPolandPortugalPuerto RicoQatarRepublic of Macedo. Download "The Following" The Final Chapter at 25 MBitThe.Flash.2014.S02E23.720p.HDTV.X264-FZH (890 MB) 25/05/2016Marvels.Agents.of.S.H.I.E.L.D.S03E22.HDT (297 MB) 23/05/2016The.Simpsons.S27E22.720p.HDTV.x264-AVS.m (349 MB) 23/05/201613.Hours.The.Secret.Soldiers.of.Benghazi (1262 MB) 24/05/2016 The Following subtitles English S01E15Release name#CD UploadedUploaderThe Following S01 E151CD01/11/2014401x 0.00The.Following.S01E15.1080p.5.1Ch.Web-DL.ReEnc-DeeJayAhmed1CD12/04/2014499x 0.00dpalczewskiThe Following - 01x15 - The Final Chapter.1080pweb-dl1CD11/05/20132339x 0.00The.Following.S01E15.HDTV.x264-LOL1CD30/04/201310739x 0.00Interesting linksAll subtitles for this movie in this languageAll subtitles for this movieAll subtitles from this userRequest this subtitle for a different releaseAbout movie:Release:Trailers:Posters:Covers:Others:Your link hereCoversMovie detailsMovie Rating:7.6 / 10 (845) 43 min [ ] - Ryan tries to stop Joe Carroll from achieving his goal; Joe guides Claire to a special location.Directed by:Marcos SiegaCast:Kevin BaconNatalie ZeaAnnie ParisseShawn AshmoreValorie CurryKyle CatlettNico TortorellaJames PurefoyJennifer FerrinJohn LafayetteCharlie SemineJack GwaltneyChinasa OgbuaguTommy BayiokosDylan Clark MarshallJamil MenaRick LovettGenre:CrimeDramaMysteryThrillerCountry:USALanguage:EnglishHide ads download subtitleNew subtitlesABCDEFGHIJKLMNOPQRSTUVWXYZ#Support us Download FAQ Links Statistics Contact Disclaimer Developers DMCA Admins English subtitles Euskarazko azpidatziak Hrvatski titlovi Subttols en Catal esk titulky Danske undertekster Deutsche Untertitel Nederlandse Ondertitels Eesti subtiitrid Esperantaj subtekstoj subttulos en Espaol Suomi tekstitykset Sous-titres franais Subttulos en galego Magyar feliratok slenskir Textar Subjudul Bahasa Indonesia Italiano sottotitoli Subjudul Bahasa Melayu Norske undertekster Sosttols en occitan Polskie napisy legendas em Portugus legendas em Portugus Brasileiro Romana subtitrari Titra shqip Srpski prevodi Slovensk titulky Svenska undertexter Trke altyaz Tagalog subtitles Ph ting Vit [ SevenTorrents Hockey Arena Movie Posters ] 2006-2016opensubtitles.org. Democratic Republi. BotswanaBrazilBulgariaBurkina FasoBurmaBurundiCambodiaCameroonCanadaCayman IslandsChadChileChinaColombiaCongoCosta RicaCte d'IvoireCroatiaCubaCyprusCzech RepublicCzechoslovakiaDemocratic Republi. 2. The Following Season 1 - COMPLETE [mp4,AAC,5 1] Ehhhh. Central KhmerChaozhouChechenCherokeeCheyenneChineseCornishCorsicanCreeCreekCreoleCreoles and pidginsCroatianCrowCzechDakotaDanishDariDinkaDioulaDjermaDutchDyulaDzongkhaEast-GreenlandicEastern FrisianEgyptian (Ancient)EnglishEsperantoEstonianEweFaliaschFaroeseFilipinoFinnishFlemishFonFrenchFrench Sign LanguageFrisianFulahFurGaelicGalicianGalleganGeorgianGermanGerman Sign LanguageGreboGreekGreek, Ancient (to.

and only Ryan can stop him. General Format : MPEG-4 Format profile : Base Media Codec ID : isom Overall bit rate mode : Variable Overall bit rate : 751 Kbps Encoded date : UTC 2013-04-24 07:57:12 Tagged date : UTC 2013-04-24 07:57:12 Video ID : 1 Format : AVC Format/Info : Advanced Video Codec Format profile : [emailprotected] Format settings, CABAC : Yes Format settings, ReFrames : 2 frames Codec ID : avc1 Codec ID/Info : Advanced Video Coding Bit rate : 655 Kbps Maximum bit rate : 2 282 Kbps Width : 1 280 pixels Height : 720 pixels Display aspect ratio : 16:9 Frame rate mode : Constant Frame rate : 29.970 fps Color space : YUV Chroma subsampling : 4:2:0 Bit depth : 8 bits Scan type : Progressive Bits/(Pixel*Frame) : 0.024 Stream size : 196 MiB (86%) Writing library : x264 core 130 r2273 b3065e6 Encoding settings : cabac=1 / ref=2 / deblock=1:0:0 / analyse=0x3:0x133 / me=umh / subme=10 / psy=1 / psyrd=1.00:0.00 / mixedref=1 / merange=24 / chromame=1 / trellis=2 / 8x8dct=1 / cqm=0 / deadzone=21,11 / fastpskip=1 / chromaqpoffset=-2 / threads=3 / lookaheadthreads=1 / slicedthreads=0 / nr=0 / decimate=1 / interlaced=0 / bluraycompat=0 / constrainedintra=0 / bframes=1 / bpyramid=0 / badapt=2 / bbias=0 / direct=3 / weightb=1 / opengop=0 / weightp=2 / keyint=250 / keyintmin=25 / scenecut=40 / intrarefresh=0 / rclookahead=60 / rc=abr / mbtree=1 / bitrate=655 / ratetol=1.0 / qcomp=0.60 / qpmin=0 / qpmax=69 / qpstep=4 / ipratio=1.40 / aq=1:1.00 Encoded date : UTC 2013-04-24 07:57:12 Tagged date : UTC 2013-04-24 07:57:25 Audio ID : 2 Format : AAC Format/Info : Advanced Audio Codec Format profile : LC Codec ID : 40 Bit rate mode : Variable Bit rate : 98.6 Kbps Maximum bit rate : 105 Kbps Channel(s) : 6 channels Channel positions : Front: L C R, Side: L R, LFE Sampling rate : 48.0 KHz Compression mode : Lossy Stream size : 29.8 MiB (13%) Encoded date : UTC 2013-04-24 07:57:24 Tagged date : UTC 2013-04-24 07:57:25 . I + II (2012) [24-192 HD FLAC] . Posted by ehhhhtozebec •326 on April 30, 2013 in Series Misc , downloaded 1005 times , verified torrent Size: 3.4 GB , Seeds: 65 , Peers: 14 ( Updated February 25, 2016 - Refresh ) + vote: 0 - vote: 0 . If you want to be pernament logged-in, check in form remember meLog-InUsername:Password:remember me Forgotten password Register. .. udp://tracker.ex.ua/announce 6.

the fantastic four 2008once upon a time s03 completefear of a black hatthe fiery heart bloodlinesin flames come clarityveruca james and the room of pure imaginationthe strain s01.1080pempress ki completewoodman victoria sweetthe smurf 2


Revenir en haut
Publicité






MessagePosté le: Jeu 2 Juin - 03:04 (2016)    Sujet du message: Publicité

PublicitéSupprimer les publicités ?
Revenir en haut
Montrer les messages depuis:   
Poster un nouveau sujet   Répondre au sujet     ๑۩۞۩๑ [ AsK ] ๑۩۞۩๑ Index du Forum -> [ Espace Tournoi s1 ] -> Inscription Toutes les heures sont au format GMT + 1 Heure
Page 1 sur 1

 
Sauter vers:  

Index | Panneau d’administration | créer un forum | Forum gratuit d’entraide | Annuaire des forums gratuits | Signaler une violation | Conditions générales d'utilisation
WorkStation[fusion] © theme by larme d'ange 2006
Powered by phpBB © 2001, 2005 phpBB Group
Traduction par : phpBB-fr.com